Filecrypt zeigt vereinzelt Files als "n/a". Die Downloads sind trotzdem komplett.

DNS SERVER AENDERNum der staatlichen Zensur zu umgehen. Sollten wir von eurem Provider geseprrt werden, nutzt den TOR BROWSER oder ändert euren DNS SERVER.

Filmwünsche können bei uns im Forum abgegeben werden

Wir Speichern Nicht




 
 
 
Top Releases
Maleika.2017.GERMAN.DOKU.108...
Ant-Man.And.The.Wasp.2018.Ge...
Apostle.2018.German.AC3.DL.1...
Brawl.in.Cell.Block.99.UNCUT...
Burning.2.On.Ice.2016.German...
22.Juli.2018.German.AC3.DL.1...
No.Way.Out.Gegen.die.Flammen...
Ant-Man.and.the.Wasp.2018.Ge...
Ant-Man.and.the.Wasp.2018.Ge...
Ant-Man.and.the.Wasp.2018.Ge...

Cinedubs
MEG.Biss.bald.2018.German.AC...
MEG.Biss.bald.2018.German.AC...
Bad.Spies.2018.German.AC3MD....
Bad.Spies.2018.German.AC3MD....
Searching.2018.German.AC3MD....
Searching.2018.German.AC3MD....
211.Cops.Under.Fire.2018.Ger...
211.Cops.Under.Fire.2018.Ger...
MEG.Biss.bald.2018.German.AC...
MEG.Biss.bald.2018.German.AC...

Neuerscheinungen 2017-18
The.Watcher.Willkommen.im.Mo...
Term.Life.Moerderischer.Wett...
Ratter.Er.weiss.alles.ueber....
Maleika.2017.DOCU.GERMAN.COM...
Mr.Right.2015.German.AC3.DL....
Jessica.und.das.Rentier.Pran...
Drone.Toedliche.Mission.2017...
The.Darkest.Minds.Die.Ueberl...
Juice.City.War.1992.German.D...
Der.Augenzeuge.Eyewitness.19...

XXX
EroticaX.18.10.03.Paige.Owen...
ClubSeventeen.18.10.01.Stacy...
CastingCouch-X.18.10.05.Chlo...
Private.18.10.02.Private.Cas...
GirlsOutWest.18.10.01.Penelo...
NewSensations.18.10.05.Candi...
Lubed.18.10.01.Aidra.Fox.Dri...
JulesJordan.18.10.04.Anny.Au...
BoldlyGirls.18.10.05.Sheila....
Confessions.18.10.01.Scarlet...
WildOnCam.18.10.04.Elle.Vone...
GrandpasFuckTeens.18.10.02.L...
KrissKiss.18.08.29.Perfect.B...
Watch4Beauty.18.10.03.Jia.Li...
PornMegaLoad.18.10.04.Natali...
Hustler.18.10.04.Kendra.Lynn...
DaughterSwap.18.10.02.Alexa....
Hustler.18.10.02.Noemie.Bila...
CreampieInAsia.18.10.05.Nok....
KellyMadison.18.10.05.Olivia...

3D
Jurassic.World.Das.gefallene...
Jurassic.World.Das.gefallene...
Best.of.3D.vol.10.-.12.GERMA...
Die.Biene.Maja.2.Die.Honigsp...
Sharknado.6.The.Last.One.3D....
Solo.A.Star.Wars.Story.3D.20...
Solo.A.Star.Wars.Story.3D.20...
Die.Biene.Maja.2.Die.Honigsp...
Avengers.Infinity.War.3D.201...
Avengers.Infinity.War.3D.201...
Rampage.Big.Meets.Bigger.3D....
Rampage.Big.Meets.Bigger.3D....
Rampage.Big.Meets.Bigger.3D....
Winter.Games.3D.2013.DUAL.CO...
Tomb.Raider.3D.2018.German.7...

Old_Stuff
Britney.Spears.Live.The.Femm...
Buffy.The.Vampire.Slayer.199...
IMAX.Ride.Around.The.World.2...
Schimanski.-.Duisburg.Ruhror...
Akte.X.S02.German.DTS.DL.108...
How.I.Met.Your.Mother.S02.Ge...
Akte.X.S01.German.DTS.DL.108...
Den.Himmel.gibts.echt.DL.108...
Vikings.S02.German.DL.1080p....
Be.Kind.Rewind.Abgedreht.200...
Be.Kind.Rewind.Abgedreht.200...
Dracula.The.Dark.Lord.2012.G...
21.2008.German.DL.1080p.BluR...
Achtung.fertig.WK.Swissgerma...
The.Ouija.Exorcism.2015.MULT...

Filme
The.Walking.Dead.S09.GERMAN....
City.of.Industry.1997.German...
Das.Yakuza.Kartel.German.199...
Doctor.Who.Aus.der.Zeit.gefa...
Immer.Aerger.mit.Sergeant.Bi...
The.Watcher.Willkommen.im.Mo...
Inside.WikiLeaks.Die.fuenfte...
Aus.einem.deutschen.Leben.19...
Ausgeloescht.1987.German.DL....
Ausgequetscht.2009.German.DT...
Auslandseinsatz.2012.German....
Auf.Wiedersehen.Kinder.1987....
Auf.Treu.und.Glauben.2016.Ge...
Auf.eigene.Faust.1959.German...
Auf.Liebe.und.Tod.1983.Germa...
Auf.Kriegsfuss.mit.Major.Pay...
Salman.Khan.-.Love.1991.GERM...
Auf.den.ersten.Blick.1999.Ge...
Decommissioned.Anschlag.auf....
Joshua.Der.Erstgeborene.2007...
Joshua.Der.Erstgeborene.2007...
Totentanz.der.Vampire.1971.G...
Totentanz.der.Vampire.1971.G...
The.Crone.2013.German.1080p....

 
 
Modern.Family.S08.GERMAN.DUBBED.DL.720p.WebHD.x264-SCENE

Jahr: 2016
Genre: Komödie
Sprache: Deutsch AC3 | Englisch AC3
Laufzeit: 21min je Folge
Bitrate: 1200 Kbps
Format: MKV
Größe: 700 MB je Folge
Release:

Beschreibung:

Modern Family handelt von drei unterschiedliche Familien. Sie werden von einem holländischen Kamerateam in einer Mockumentary verfolgt. Dabei steht im Vordergrund, dass diese Familien unterschiedlichen Lebensmodellen folgen.

Das beginnt bei der traditionellen Familie: Vater, Mutter und drei Kinder. Das geht über die beiden Wiederverheirateten: Er im Rentenalter, sie eine scharfe, junge Latina mit einem Sohn aus erster Ehe. Und endet bei dem homosexuellen Paar, das gerade ein asiatisches Baby adoptiert hat.

 

enthaltene Folgen:

Modern.Family.S08E01.Eine.Geschichte.aus.drei.Staedten.GERMAN.DUBBED.DL.720p.WebHD.x264-TVP

Modern.Family.S08E02.Auf.Tuchfuehlung.mit.der.Toleranz.GERMAN.DUBBED.DL.720p.WebHD.x264-TVP

Modern.Family.S08E03.Kinder.Ueberraschungen.GERMAN.DUBBED.DL.720p.WebHD.x264-TVP

Modern.Family.S08E04.Sturmhoehen.GERMAN.DUBBED.DL.720p.WebHD.x264-TVP

Modern.Family.S08E05.Was.wuerde.Jesus.tun.zu.Halloween.GERMAN.DUBBED.DL.720p.WebHD.x264-TVP 

Modern.Family.S08E06.Greif.zu.GERMAN.DUBBED.DL.720p.WebHD.x264-TVP

Modern.Family.S08E07.Warum.geschieht.alles.das.zu.Thanksgiving.GERMAN.DUBBED.DL.720p.WebHD.x264-TVP 

Modern.Family.S08E08.Geheime.Allianz.GERMAN.DUBBED.DL.720p.WebHD.x264-TVP

Modern.Family.S08E09.Ausrutscher.auf.dem.Schnee.Ball.GERMAN.DUBBED.DL.720p.WebHD.x264-TVP 

Modern.Family.S08E10.Zirkusdirektor.Keifth.GERMAN.DUBBED.DL.720p.WebHD.x264-TVP

Modern.Family.S08E11.Der.Apfel.will.weit.weg.vom.Stamm.GERMAN.DL.720p.HDTV.x264-MDGP 

Modern.Family.S08E12.Irrungen.und.Wirrungen.zum.Valentinstag.GERMAN.DL.720p.HDTV.x264-MDGP

Modern.Family.S08E13.Do.It.Yourself.GERMAN.DUBBED.DL.720p.WebHD.x264-TVP

Modern.Family.S08E14.Heavy.is.the.Head.GERMAN.DUBBED.DL.720p.WebHD.x264-TVP

Modern.Family.S08E15.Finding.Fizbo.GERMAN.DUBBED.DL.720p.WebHD.x264-TVP 

Modern.Family.S08E16.Basketball.GERMAN.DUBBED.DL.720p.WebHD.x264-TVP

Modern.Family.S08E17.Pig.Moon.Rising.GERMAN.DUBBED.DL.720p.WebHD.x264-TVP NEU

Modern.Family.S08E18.Five.Minutes.GERMAN.DUBBED.DL.720p.WebHD.x264-TVP NEU



General
Complete name                            : Modern.Family.S08E01.Eine.Geschichte.aus.drei.Staedten.GERMAN.DUBBED.DL.720p.WebHD.x264-TVP\tvp-modernfamily-s08e01-720p.mkv
Format                                   : Matroska
Format version                           : Version 2
File size                                : 712 MiB
Duration                                 : 20mn 45s
Overall bit rate                         : 4 797 Kbps
Movie name                               : Modern.Family.S08E01.Eine.Geschichte.aus.drei.Staedten.GERMAN.DUBBED.DL.720p.WebHD.x264-TVP
Encoded date                             : UTC 2018-08-16 18:40:53
Writing application                      : mkvmerge v5.6.0 ('Kenya Kane') built on May 28 2012 06:47:39
Writing library                          : libebml v1.2.2 + libmatroska v1.3.0

Video
ID                                       : 1
Format                                   : AVC
Format/Info                              : Advanced Video Codec
Format profile                           : [email protected]
Format settings, CABAC                   : No
Format settings, ReFrames                : 2 frames
Codec ID                                 : V_MPEG4/ISO/AVC
Duration                                 : 20mn 45s
Bit rate                                 : 4 126 Kbps
Width                                    : 1 280 pixels
Height                                   : 720 pixels
Display aspect ratio                     : 16:9
Frame rate mode                          : Constant
Frame rate                               : 25.000 fps
Color space                              : YUV
Chroma subsampling                       : 4:2:0
Bit depth                                : 8 bits
Scan type                                : Progressive
Bits/(Pixel*Frame)                       : 0.179
Stream size                              : 612 MiB (86%)
Title                                    : tvp-modernfamily-s08e01-720p
Language                                 : German
Default                                  : Yes
Forced                                   : Yes
Color primaries                          : BT.709
Transfer characteristics                 : BT.709
Matrix coefficients                      : BT.709

Audio #1
ID                                       : 2
Format                                   : AC-3
Format/Info                              : Audio Coding 3
Mode extension                           : CM (complete main)
Format settings, Endianness              : Big
Codec ID                                 : A_AC3
Duration                                 : 20mn 45s
Bit rate mode                            : Constant
Bit rate                                 : 192 Kbps
Channel(s)                               : 2 channels
Channel positions                        : Front: L R
Sampling rate                            : 48.0 KHz
Bit depth                                : 16 bits
Compression mode                         : Lossy
Stream size                              : 28.5 MiB (4%)
Language                                 : German
Default                                  : Yes
Forced                                   : Yes

Audio #2
ID                                       : 3
Format                                   : AC-3
Format/Info                              : Audio Coding 3
Mode extension                           : CM (complete main)
Format settings, Endianness              : Big
Codec ID                                 : A_AC3
Duration                                 : 20mn 45s
Bit rate mode                            : Constant
Bit rate                                 : 384 Kbps
Channel(s)                               : 6 channels
Channel positions                        : Front: L C R, Side: L R, LFE
Sampling rate                            : 48.0 KHz
Bit depth                                : 16 bits
Compression mode                         : Lossy
Stream size                              : 57.0 MiB (8%)
Language                                 : English
Default                                  : No
Forced                                   : No



Download:
Share-Online.biz Share-Online.bizShare-Online.bizShare-Online.biz | Rapidgator.net Rapidgator.netRapidgator.netRapidgator.net
 

Kommentare

  1. Geschrieben am 9. October 2018, 12:15 Uhr von Rolf B · #

    ein kleiner Fehler bei S08E10: die Folge wird beim entpacken in S08E09 umbenannt. man muss sie dann manuell wieder in S08E10 benennen. ansonsten ist es aber die richtige Folge.

  2. Geschrieben am 14. October 2018, 18:01 Uhr von kika · #

    Einige Folgen benötigen ein Passwort,welches wäre es denn bitte?

    / Seit 8 Jahren haben wir kein Passwort. Dein Problem ist ein anderes.