Filecrypt zeigt vereinzelt Files als "n/a". Die Downloads sind trotzdem komplett.

DNS SERVER AENDERNum der staatlichen Zensur zu umgehen. Sollten wir von eurem Provider geseprrt werden, nutzt den TOR BROWSER oder ändert euren DNS SERVER.

Filmwünsche können bei uns im Forum abgegeben werden

Wir Speichern Nicht




 
 
 
Top Releases
Skyscraper.German.DL.AC3.Dub...
Skyscraper.German.DL.AC3.Dub...
Hereditary.Das.Vermaechtnis....
Hotel.Transsilvanien.3.Ein.M...
Hereditary.2018.MULTi.COMPLE...
Ant-Man.and.the.Wasp.2018.Ge...
Meine.Weihnachtsliebe.2016.G...
Meine.Weihnachtsliebe.2016.G...
Ein.Weihnachtswunder.24.Tuer...
Ein.Weihnachtswunder.24.Tuer...

Cinedubs
MEG.Biss.bald.2018.German.AC...
Slender.Man.2018.GERMAN.DL.A...
Slender.Man.2018.GERMAN.DL.A...
Bad.Spies.2018.German.AC3MD....
MEG.Biss.bald.2018.German.AC...
MEG.Biss.bald.2018.German.AC...
Bad.Spies.2018.German.AC3MD....
Bad.Spies.2018.German.AC3MD....
Searching.2018.German.AC3MD....
Searching.2018.German.AC3MD....

Neuerscheinungen 2017-18
Men.at.Work.1990.German.DL.1...
Das.ist.erst.der.Anfang.Just...
Das.ist.erst.der.Anfang.Miss...
Transit.2018.German.DTS.1080...
Transit.2018.German.DTS.720p...
The.Walking.Deceased.Die.Nac...
The.Walking.Deceased.Die.Nac...
Das.ist.erst.der.Anfang.Miss...
The.Jurassic.Games.2018.GERM...
The.Jurassic.Games.2018.GERM...

XXX
SpyFam.18.10.01.Chloe.Temple...
MistressT.18.06.05.Pantyhose...
DaneJones.18.10.02.Jasmine.W...
KarupsPC.18.10.03.Victoria.J...
MetArtX.18.10.02.Sybil.A.Col...
FemaleFakeTaxi.18.10.05.Nath...
FakeAgent.18.10.04.Kizzy.Six...
MySistersHotFriend.18.10.03....
MistressT.18.04.03.You.Disgu...
GotMylf.18.10.04.Pristine.Ed...
HouseOfTaboo.18.10.05.Alice....
MistressT.18.05.22.Tiny.Dick...
MistressT.18.06.30.Evil.Step...
PornstarsLikeItBig.18.10.04....
PlayboyPlus.18.10.02.Joelina...
RylskyArt.18.10.01.Alexandra...
GangbangCreampie.18.10.05.G1...
EvilAngel.Young.Hot.Ass.XXX....
Cosmid.18.10.01.Eva.Ditov.Co...
TeensLoveHugeCocks.18.10.05....

3D
Skyscraper.3D.German.DL.AC3....
Ant-Man.and.the.Wasp.2018.3D...
Jurassic.World.Das.gefallene...
Jurassic.World.Das.gefallene...
Best.of.3D.vol.10.-.12.GERMA...
Die.Biene.Maja.2.Die.Honigsp...
Sharknado.6.The.Last.One.3D....
Solo.A.Star.Wars.Story.3D.20...
Solo.A.Star.Wars.Story.3D.20...
Die.Biene.Maja.2.Die.Honigsp...
Avengers.Infinity.War.3D.201...
Avengers.Infinity.War.3D.201...
Rampage.Big.Meets.Bigger.3D....
Rampage.Big.Meets.Bigger.3D....
Rampage.Big.Meets.Bigger.3D....

Old_Stuff
Species.IV.Das.Erwachen.2007...
Species.IV.Das.Erwachen.2007...
Hotel.Transsilvanien.2012.Ge...
The.Dead.2010.German.DL.1080...
The.Dead.2.India.2013.German...
Britney.Spears.Live.The.Femm...
Buffy.The.Vampire.Slayer.199...
IMAX.Ride.Around.The.World.2...
Schimanski.-.Duisburg.Ruhror...
Akte.X.S02.German.DTS.DL.108...
How.I.Met.Your.Mother.S02.Ge...
Akte.X.S01.German.DTS.DL.108...
Den.Himmel.gibts.echt.DL.108...
Vikings.S02.German.DL.1080p....
Be.Kind.Rewind.Abgedreht.200...

Filme
The.Last.Ship.S05.GERMAN.DUB...
The.Last.Ship.S05.GERMAN.DUB...
Die.Simpsons.S29.GERMAN.DUBB...
Die.Simpsons.S29.GERMAN.DUBB...
Ein.Geschenk.fuers.Leben.200...
Ein.goettliches.Paar.Rab.Ne....
Ein.griechischer.Sommer.Germ...
Ein.gutes.Herz.German.DTS.DL...
Hereditary.Das.Vermaechtnis....
Men.at.Work.1990.German.720p...
Young.Sheldon.S01.GERMAN.DUB...
Young.Sheldon.S01.GERMAN.DUB...
Animal.Kingdom.S03.German.DD...
Legends.of.Tomorrow.S03.Germ...
Ein.ganz.gewoehnlicher.Dieb....
The.Haunting.of.Whaley.House...
The.Hidden.Blade.2004.German...
The.Hike.Ausflug.ins.Grauen....
The.Hitmen.Kill.Em.All.2014....
Inside.Man.2006.German.DTS.D...
Ein.freudiges.Ereignis.2011....
The.Holding.2011.German.DL.1...
The.Heavy.Der.letzte.Job.201...
The.Hollow.Mord.in.Mississip...

 
 
Die.Peanuts.Erntedankfest.1973.German.DL.AC3D.FS.720p.BluRay.x264-GSG9_iNT

Jahr: 1973
Genre: Animation, Komödie
Sprache: Deutsch AC3 | Englisch AC3
Laufzeit: 24mn 19s
Bitrate: 5 693 Kbps
Format: MKV
Größe: 990 MiB
Release:

Beschreibung:

Charlie Brown und seine Freunde erleben all die komischen und tragischen Geschichten, die Kinder auf dem Weg zum Erwachsenwerden begleiten. Dabei wirkt Charlie wie der geborene Verlierer, der immer wieder erfolglos versucht, Football zu spielen oder Drachen steigen zu lassen. Zu seinen Freunden gehören Peppermint Patty, Linus, Lucy, Sally, Schroeder und natürlich Snoopy. Der Beagle spricht zwar nicht, macht sich aber seine eigenen Gedanken über Gott und die Welt, wenn er auf dem Dach seiner Hundehütte liegt und sich die Zeit mit seinem besten Freund Woodstock, einem kleinen gelben Vogel, vertreibt.



Complete name                            : Die.Peanuts.Erntedankfest.1973.German.DL.AC3D.720p.BluRay.x264-GSG9_iNT.mkv
Format                                   : Matroska
Format version                           : Version 4 / Version 2
File size                                : 990 MiB
Duration                                 : 24mn 19s
Overall bit rate                         : 5 693 Kbps
Encoded date                             : UTC 2018-08-06 23:46:14
Writing application                      : mkvmerge v20.0.0 ('I Am The Sun') 64-bit
Writing library                          : libebml v1.3.5 + libmatroska v1.4.8
DURATION                                 : 00:24:17.792000000
NUMBER_OF_FRAMES                         : 45556
NUMBER_OF_BYTES                          : 34987008
_STATISTICS_WRITING_APP                  : mkvmerge v20.0.0 ('I Am The Sun') 64-bit
_STATISTICS_WRITING_DATE_UTC             : 2018-08-06 23:46:14
_STATISTICS_TAGS                         : BPS DURATION NUMBER_OF_FRAMES NUMBER_OF_BYTES

Video
ID                                       : 1
Format                                   : AVC
Format/Info                              : Advanced Video Codec
Format profile                           : [email protected]
Format settings, CABAC                   : Yes
Format settings, ReFrames                : 5 frames
Codec ID                                 : V_MPEG4/ISO/AVC
Duration                                 : 24mn 19s
Bit rate                                 : 4 662 Kbps
Width                                    : 976 pixels
Height                                   : 720 pixels
Display aspect ratio                     : 4:3
Frame rate mode                          : Constant
Frame rate                               : 25.000 fps
Original frame rate                      : 23.976 fps
Color space                              : YUV
Chroma subsampling                       : 4:2:0
Bit depth                                : 8 bits
Scan type                                : Progressive
Bits/(Pixel*Frame)                       : 0.265
Stream size                              : 826 MiB (83%)
Writing library                          : x264 core 155 r2901 7d0ff22
Encoding settings                        : cabac=1 / ref=5 / deblock=1:-2:-2 / analyse=0x3:0x113 / me=umh / subme=8 / psy=1 / psy_rd=1.00:0.00 / mixed_ref=1 / me_range=16 / chroma_me=1 / trellis=2 / 8x8dct=1 / cqm=0 / deadzone=21,11 / fast_pskip=1 / chroma_qp_offset=-2 / threads=12 / lookahead_threads=2 / sliced_threads=0 / nr=0 / decimate=1 / interlaced=0 / bluray_compat=0 / constrained_intra=0 / bframes=3 / b_pyramid=2 / b_adapt=2 / b_bias=0 / direct=3 / weightb=1 / open_gop=0 / weightp=2 / keyint=240 / keyint_min=24 / scenecut=40 / intra_refresh=0 / rc_lookahead=50 / rc=2pass / mbtree=1 / bitrate=4662 / ratetol=1.0 / qcomp=0.60 / qpmin=0 / qpmax=69 / qpstep=4 / cplxblur=20.0 / qblur=0.5 / ip_ratio=1.40 / aq=1:1.00
Language                                 : English
Default                                  : Yes
Forced                                   : No
DURATION                                 : 00:24:19.240000000
NUMBER_OF_FRAMES                         : 36481
NUMBER_OF_BYTES                          : 886304275
_STATISTICS_WRITING_APP                  : mkvmerge v20.0.0 ('I Am The Sun') 64-bit
_STATISTICS_WRITING_DATE_UTC             : 2018-08-06 23:46:14
_STATISTICS_TAGS                         : BPS DURATION NUMBER_OF_FRAMES NUMBER_OF_BYTES

Audio #1
ID                                       : 2
Format                                   : AC-3
Format/Info                              : Audio Coding 3
Mode extension                           : CM (complete main)
Format settings, Endianness              : Big
Codec ID                                 : A_AC3
Duration                                 : 24mn 19s
Bit rate mode                            : Constant
Bit rate                                 : 192 Kbps
Channel(s)                               : 1 channel
Channel positions                        : Front: C
Sampling rate                            : 48.0 KHz
Bit depth                                : 16 bits
Compression mode                         : Lossy
Delay relative to video                  : 1s 35ms
Stream size                              : 33.4 MiB (3%)
Language                                 : German
Default                                  : Yes
Forced                                   : No

Audio #2
ID                                       : 3
Format                                   : AC-3
Format/Info                              : Audio Coding 3
Mode extension                           : CM (complete main)
Format settings, Endianness              : Big
Codec ID                                 : A_AC3
Duration                                 : 24mn 19s
Bit rate mode                            : Constant
Bit rate                                 : 640 Kbps
Channel(s)                               : 6 channels
Channel positions                        : Front: L C R, Side: L R, LFE
Sampling rate                            : 48.0 KHz
Bit depth                                : 16 bits
Compression mode                         : Lossy
Stream size                              : 111 MiB (11%)
Language                                 : English
Default                                  : No
Forced                                   : No


Download:
Share Online Share OnlineShare OnlineShare Online
 

Kommentare