Filecrypt zeigt vereinzelt Files als "n/a". Die Downloads sind trotzdem komplett.

DNS SERVER AENDERNum der staatlichen Zensur zu umgehen. Sollten wir von eurem Provider geseprrt werden, nutzt den TOR BROWSER oder ändert euren DNS SERVER.

Filmwünsche können bei uns im Forum abgegeben werden

Wir Speichern Nicht




 
 
 
Top Releases
Skyscraper.German.DL.AC3.Dub...
Skyscraper.German.DL.AC3.Dub...
Hereditary.Das.Vermaechtnis....
Hotel.Transsilvanien.3.Ein.M...
Hereditary.2018.MULTi.COMPLE...
Ant-Man.and.the.Wasp.2018.Ge...
Meine.Weihnachtsliebe.2016.G...
Meine.Weihnachtsliebe.2016.G...
Ein.Weihnachtswunder.24.Tuer...
Ein.Weihnachtswunder.24.Tuer...

Cinedubs
MEG.Biss.bald.2018.German.AC...
Slender.Man.2018.GERMAN.DL.A...
Slender.Man.2018.GERMAN.DL.A...
Bad.Spies.2018.German.AC3MD....
MEG.Biss.bald.2018.German.AC...
MEG.Biss.bald.2018.German.AC...
Bad.Spies.2018.German.AC3MD....
Bad.Spies.2018.German.AC3MD....
Searching.2018.German.AC3MD....
Searching.2018.German.AC3MD....

Neuerscheinungen 2017-18
Men.at.Work.1990.German.DL.1...
Das.ist.erst.der.Anfang.Just...
Das.ist.erst.der.Anfang.Miss...
Transit.2018.German.DTS.1080...
Transit.2018.German.DTS.720p...
The.Walking.Deceased.Die.Nac...
The.Walking.Deceased.Die.Nac...
Das.ist.erst.der.Anfang.Miss...
The.Jurassic.Games.2018.GERM...
The.Jurassic.Games.2018.GERM...

XXX
BigNaturals.18.10.02.Marilyn...
SpyFam.18.10.01.Chloe.Temple...
MistressT.18.06.05.Pantyhose...
DaneJones.18.10.02.Jasmine.W...
KarupsPC.18.10.03.Victoria.J...
MetArtX.18.10.02.Sybil.A.Col...
FemaleFakeTaxi.18.10.05.Nath...
FakeAgent.18.10.04.Kizzy.Six...
MySistersHotFriend.18.10.03....
MistressT.18.04.03.You.Disgu...
GotMylf.18.10.04.Pristine.Ed...
HouseOfTaboo.18.10.05.Alice....
MistressT.18.05.22.Tiny.Dick...
MistressT.18.06.30.Evil.Step...
PornstarsLikeItBig.18.10.04....
PlayboyPlus.18.10.02.Joelina...
RylskyArt.18.10.01.Alexandra...
GangbangCreampie.18.10.05.G1...
EvilAngel.Young.Hot.Ass.XXX....
Cosmid.18.10.01.Eva.Ditov.Co...

3D
Skyscraper.3D.German.DL.AC3....
Ant-Man.and.the.Wasp.2018.3D...
Jurassic.World.Das.gefallene...
Jurassic.World.Das.gefallene...
Best.of.3D.vol.10.-.12.GERMA...
Die.Biene.Maja.2.Die.Honigsp...
Sharknado.6.The.Last.One.3D....
Solo.A.Star.Wars.Story.3D.20...
Solo.A.Star.Wars.Story.3D.20...
Die.Biene.Maja.2.Die.Honigsp...
Avengers.Infinity.War.3D.201...
Avengers.Infinity.War.3D.201...
Rampage.Big.Meets.Bigger.3D....
Rampage.Big.Meets.Bigger.3D....
Rampage.Big.Meets.Bigger.3D....

Old_Stuff
Species.IV.Das.Erwachen.2007...
Species.IV.Das.Erwachen.2007...
Hotel.Transsilvanien.2012.Ge...
The.Dead.2010.German.DL.1080...
The.Dead.2.India.2013.German...
Britney.Spears.Live.The.Femm...
Buffy.The.Vampire.Slayer.199...
IMAX.Ride.Around.The.World.2...
Schimanski.-.Duisburg.Ruhror...
Akte.X.S02.German.DTS.DL.108...
How.I.Met.Your.Mother.S02.Ge...
Akte.X.S01.German.DTS.DL.108...
Den.Himmel.gibts.echt.DL.108...
Vikings.S02.German.DL.1080p....
Be.Kind.Rewind.Abgedreht.200...

Filme
The.Last.Ship.S05.GERMAN.DUB...
The.Last.Ship.S05.GERMAN.DUB...
Die.Simpsons.S29.GERMAN.DUBB...
Die.Simpsons.S29.GERMAN.DUBB...
Ein.Geschenk.fuers.Leben.200...
Ein.goettliches.Paar.Rab.Ne....
Ein.griechischer.Sommer.Germ...
Ein.gutes.Herz.German.DTS.DL...
Hereditary.Das.Vermaechtnis....
Men.at.Work.1990.German.720p...
Young.Sheldon.S01.GERMAN.DUB...
Young.Sheldon.S01.GERMAN.DUB...
Animal.Kingdom.S03.German.DD...
Legends.of.Tomorrow.S03.Germ...
Ein.ganz.gewoehnlicher.Dieb....
The.Haunting.of.Whaley.House...
The.Hidden.Blade.2004.German...
The.Hike.Ausflug.ins.Grauen....
The.Hitmen.Kill.Em.All.2014....
Inside.Man.2006.German.DTS.D...
Ein.freudiges.Ereignis.2011....
The.Holding.2011.German.DL.1...
The.Heavy.Der.letzte.Job.201...
The.Hollow.Mord.in.Mississip...

 
 
Solo.A.Star.Wars.Story.3D.2018.German.DL.1080p.BluRay.x264-BluRay3D

Jahr: 2018
Genre: Action, Sci-Fi
Sprache: Deutsch AC3 | Englisch DTS
Laufzeit: 2h 14mn
Bitrate: 5 673 Kbps
Format: MKV
Größe: 5.34 GiB
Release:

Beschreibung:

Ungefähr zehn Jahre vor „Star Wars: Episode IV“: Han Solo (Alden Ehrenreich), der sich ohne Eltern in den rauen Straßen seines Heimatplaneten Corellia durchschlagen musste und später von der imperialen Flugakademie geworfen wurde, hat seinen eigenen Kopf. Den versucht er sich genauso zu bewahren wie seinen Idealismus. „Vertraue niemandem“, rät ihm dagegen sein Mentor Tobias Beckett (Woody Harrelson) - bevor ihn ein anderer zwielichtiger Gangster, Dryden Vos (Paul Bettany), für einen Zugüberfall rekrutiert. Begleitet wird Han dabei unter anderem von seinem neuen, treuen Freund Chewbacca (Joonas Suotamo) und von mehr oder weniger vertrauenswürdigen Kumpanen. Darunter sind Qi'Ra (Emilia Clarke), die für eine Gang auf Corellia arbeitet und Han von früher kennt, und Val (Thandie Newton), eine Meisterin am Blaster-Gewehr. Außerdem mischt Schmuggler Lando Calrissian (Donald Glover) mit, der Besitzer des Millennium Falken…



Complete name                            : br3d-starwarssolo1080p.mkv
Format                                   : Matroska
Format version                           : Version 4 / Version 2
File size                                : 5.34 GiB
Duration                                 : 2h 14mn
Overall bit rate                         : 5 673 Kbps
Encoded date                             : UTC 2018-09-19 15:27:31
Writing application                      : mkvmerge v14.0.0 ('Flow') 64bit
Writing library                          : libebml v1.3.4 + libmatroska v1.4.5
DURATION                                 : 01:04:07.375000000
NUMBER_OF_FRAMES                         : 16
NUMBER_OF_BYTES                          : 145078
_STATISTICS_WRITING_APP                  : mkvmerge v14.0.0 ('Flow') 64bit
_STATISTICS_WRITING_DATE_UTC             : 2018-09-19 15:27:31
_STATISTICS_TAGS                         : BPS DURATION NUMBER_OF_FRAMES NUMBER_OF_BYTES

Video
ID                                       : 1
Format                                   : AVC
Format/Info                              : Advanced Video Codec
Format profile                           : [email protected]
MultiView_Count                          : 2
MultiView_Layout                         : Side by Side (left eye first)
Format settings, CABAC                   : Yes
Format settings, ReFrames                : 5 frames
Codec ID                                 : V_MPEG4/ISO/AVC
Duration                                 : 2h 14mn
Bit rate                                 : 3 539 Kbps
Width                                    : 1 920 pixels
Height                                   : 808 pixels
Display aspect ratio                     : 2.40:1
Frame rate mode                          : Constant
Frame rate                               : 23.976 fps
Color space                              : YUV
Chroma subsampling                       : 4:2:0
Bit depth                                : 8 bits
Scan type                                : Progressive
Bits/(Pixel*Frame)                       : 0.095
Stream size                              : 3.33 GiB (62%)
Writing library                          : x264 core 155 r2901 7d0ff22
Encoding settings                        : cabac=1 / ref=5 / deblock=1:-1:-1 / analyse=0x3:0x133 / me=umh / subme=7 / psy=1 / psy_rd=1.00:0.15 / mixed_ref=1 / me_range=16 / chroma_me=1 / trellis=1 / 8x8dct=1 / cqm=0 / deadzone=21,11 / fast_pskip=0 / chroma_qp_offset=-3 / threads=16 / lookahead_threads=2 / sliced_threads=0 / nr=0 / decimate=1 / interlaced=0 / bluray_compat=0 / constrained_intra=0 / bframes=3 / b_pyramid=2 / b_adapt=1 / b_bias=0 / direct=1 / weightb=1 / open_gop=0 / weightp=2 / keyint=250 / keyint_min=23 / scenecut=40 / intra_refresh=0 / rc_lookahead=40 / rc=crf / mbtree=1 / crf=20.0 / qcomp=0.60 / qpmin=0 / qpmax=69 / qpstep=4 / ip_ratio=1.40 / aq=1:1.00
Default                                  : Yes
Forced                                   : No

Audio #1
ID                                       : 2
Format                                   : AC-3
Format/Info                              : Audio Coding 3
Mode extension                           : CM (complete main)
Format settings, Endianness              : Big
Codec ID                                 : A_AC3
Duration                                 : 2h 14mn
Bit rate mode                            : Constant
Bit rate                                 : 512 Kbps
Channel(s)                               : 6 channels
Channel positions                        : Front: L C R, Side: L R, LFE
Sampling rate                            : 48.0 KHz
Bit depth                                : 16 bits
Compression mode                         : Lossy
Stream size                              : 494 MiB (9%)
Language                                 : German
Default                                  : Yes
Forced                                   : No

Audio #2
ID                                       : 3
Format                                   : DTS
Format/Info                              : Digital Theater Systems
Mode                                     : 16
Format settings, Endianness              : Big
Codec ID                                 : A_DTS
Duration                                 : 2h 14mn
Bit rate mode                            : Constant
Bit rate                                 : 1 509 Kbps
Channel(s)                               : 6 channels
Channel positions                        : Front: L C R, Side: L R, LFE
Sampling rate                            : 48.0 KHz
Bit depth                                : 24 bits
Compression mode                         : Lossy
Stream size                              : 1.42 GiB (27%)
Language                                 : English
Default                                  : No
Forced                                   : No

Text #1
ID                                       : 4
Format                                   : VobSub
Muxing mode                              : zlib
Codec ID                                 : S_VOBSUB
Codec ID/Info                            : The same subtitle format used on DVDs
Language                                 : German
Default                                  : Yes
Forced                                   : Yes

Text #2
ID                                       : 5
Format                                   : VobSub
Muxing mode                              : zlib
Codec ID                                 : S_VOBSUB
Codec ID/Info                            : The same subtitle format used on DVDs
Language                                 : English
Default                                  : No
Forced                                   : No


Download:
Share Online Share OnlineShare OnlineShare Online
 

Kommentare

  1. Geschrieben am 25. September 2018, 17:52 Uhr von JOCKERR · #

    Untertitel sind nicht richtig. Sie stehen nicht zusammen wie es im 3D Modus sein so sondern sind immer noch links und rechs.